Зулусы/Zulu (1964) BDRip.720p

 

Кино HD

WannaBe 26-11-2009, 19:07     
Зулусы/Zulu (1964) BDRip.720p

Информация о фильме
Название: Зулусы
Оригинальное название: Zulu
Год выхода: 1964.
Жанр: боевик, драма, приключения, военный, история
Режиссер: Сай Эндфилд
В ролях: Стенли Бейкер, Джек Хоукинс, Улла Якобссон, Джеймс Бут, Майкл Кейн, Найджел Грин, Айвор Эммануель, Paul Daneman, Глинн Эдвардс, Нил МакКарти.

Слоган: «These are the days and nights of fury and honor and courage and cowardice that an entire century of empire-making and film-making can never surpass!»

О фильме: Южная Африка, разгар англо-бурской войны… Англичане еще не оправились после ужасного поражения 22 января 1879 года, но Британскую армию уже ждет новое, суровое испытание.
Сто сорок отважных валлийских стрелков вступят в кровавый бой с четырьмя тысячами свирепых воинов-зулусов. Из этой неравной двенадцатичасовой битвы храбрые солдаты выйдут героями. Но какой ценой?!


Рейтинг фильма: Кинопоиск: 8.000 (19) IMDB: 7.90 (11 714)

Выпущено: Великобритания.
Продолжительность: 02:18:24
Перевод: любительский одноголосный

Файл
Качество: BDRip
Видео: AVC, Bit rate: 6 189 Kbps, Nominal bit rate: 6 334 Kbps, 1280 х 544, x264.
Аудио: Audio #1: AC-3, Bit rate: 256 Kbps, Channel(s): 2 channels, Channel positions: L R, Sampling rate: 48.0 KHz, Stream size: 253 MiB (4%), Title: AC3 2.0 256k Odnogoloska, Language: Russian.
Audio #2: AC-3, Bit rate:448 Kbps, Channel(s): 2 channels, Channel positions: L R, Sampling rate: 48.0 KHz, Stream size: 443 MiB (6%), Title: AC3 2.0 448k, Language: English.
Audio #3: Vorbis, Bit rate: 64.0 Kbps, Channel(s): 2 channels, Sampling rate: 48.0 KHz, Stream size: 63.4 MiB (1%), Title: Commentary Track, Language: English.


Размер: 6,86 Гб.

Скриншоты/Screenshots:


Загрузил: WannaBe (26 ноября 2009 19:52) |
Управление: [обновить]
Взяли: 1285 | Размер: 6.86 Gb | Последняя активность: 14 апреля 2018 20:16
Раздают: 0 Качают: 0 Скачали: 74
 Мультитрекер 
Раздают: 0 Качают: 0 Скачали: 0
Список файлов


Категории: Драма, Боевик
Рейтинг:
- Комментариев: 1 Просмотров: 2324

Перейти на главную страницу
 
Shellshock - 26 ноября 2009 19:29 --
 
Вот и отлично! winked
Комментариев: 9694       
Информация
Посетители, находящиеся в группе Гости, не могут оставлять комментарии к данной публикации.